Download Bambai 4×4 (2020) 720p Ullu Short Film

Download Bambai 4×4 (2020) 720p Ullu Short Film

General
Complete name : Bambai 4×4 (2020) 720p Ullu Short Film.mkv
Format : Matroska
Format version : Version 4
File size : 260 MiB
Duration : 23 min 41 s
Overall bit rate : 1 532 kb/s
Movie name : Telegram – Movieaio
Encoded date : UTC 2020-02-01 07:16:58
Writing application : mkvmerge v43.0.0 (‘The Quartermaster’) 64-bit
Writing library : libebml v1.3.10 + libmatroska v1.5.2

Video
ID : 1
Format : AVC
Format/Info : Advanced Video Codec
Format profile : [email protected]
Format settings : 1 Ref Frames
Format settings, CABAC : No
Format settings, Reference frames : 1 frame
Codec ID : V_MPEG4/ISO/AVC
Duration : 23 min 41 s
Bit rate : 1 402 kb/s
Width : 1 280 pixels
Height : 720 pixels
Display aspect ratio : 16:9
Frame rate mode : Constant


Frame rate : 25.000 FPS
Color space : YUV
Chroma subsampling : 4:2:0
Bit depth : 8 bits
Scan type : Progressive
Bits/(Pixel*Frame) : 0.061
Stream size : 238 MiB (91%)
Title : Bambai 4×4 (2020) 720p Ullu Short Film
Writing library : x264 core 155 r2901 7d0ff22
Default : Yes
Forced : No

Audio
ID : 2
Format : AAC LC
Format/Info : Advanced Audio Codec Low Complexity
Codec ID : A_AAC-2
Duration : 23 min 41 s
Bit rate : 128 kb/s
Channel(s) : 2 channels
Channel layout : L R
Sampling rate : 48.0 kHz
Frame rate : 46.875 FPS (1024 SPF)
Compression mode : Lossy
Stream size : 21.7 MiB (8%)
Title : Bambai 4×4 (2020) 720p Ullu Short Film


Default : Yes
Forced : No

Click Here To Download Download Bambai 4×4 (2020) 720p Ullu Short Film

Thank You For Visit.

Spread the love

Leave a Comment

Your email address will not be published. Required fields are marked *